Les Rouches  Index du Forum
S’enregistrerRechercherFAQMembresGroupesConnexion
Nine And A Half Weeks 1986 UNRATED Dvd Rip 420p MHD Dual Audio [hindi - English] HD555 Hit 2

 
Répondre au sujet    Les Rouches Index du Forum » Les Rouches: Jeux » Jeux Sujet précédent
Sujet suivant
Nine And A Half Weeks 1986 UNRATED Dvd Rip 420p MHD Dual Audio [hindi - English] HD555 Hit 2
Auteur Message
mohelv


Hors ligne

Inscrit le: 02 Avr 2016
Messages: 136
Localisation: Paris
Masculin
Moyenne de points: 2,12
Point(s): 288

Message Nine And A Half Weeks 1986 UNRATED Dvd Rip 420p MHD Dual Audio [hindi - English] HD555 Hit 2 Répondre en citant



Nine And A Half Weeks 1986 UNRATED Dvd Rip 420p MHD Dual Audio [hindi - English] HD555 Hit 2 > urlin.us/1xnxt















































Nine And A Half Weeks 1986 UNRATED Dvd Rip 420p MHD Dual Audio [hindi - English] HD555 Hit 2

6f6ddb31bf
Sharing Widget. She barely knows about his life, only about the sex games they play, so the relationship begins to get complicated. Sample info: Duration: 01:51:36.53, start: 0.000000, bitrate: 691 kb/s Stream #0.0 : Video: h264 (Constrained Baseline), yuv420p, 720x576 [PAR 1024:695 DAR 256:139], 488 kb/s, 25 fps, 25 tbr, 90k tbn, 180k tbc creationtime : 2012-06-28 14:04:04 Stream #0.1(hin): Audio: aac, 48000 Hz, stereo, s16, 127 kb/s creationtime : 2012-06-28 14:04:04 Stream #0.2(eng): Audio: aac, 48000 Hz, stereo, s16, 80 kb/s creationtime : 2012-06-28 14:04:04. ) Health : 92 seeders / 80 leechers File Format : VOB Indexed time : 7 years ago Last Check : 6 years ago InforHash : 40c5b37439769758f36e4a32777d4b91318164ae Report : Good&Clean (0)Fake (0)Password (0)Virus/Spam (0)Low quality (0) . The passion starts to appear between John and Lea, when Lea's business partner Vittorio tells John another version of Elizabeth's fate. Description Nine And A Half Weeks 1986 UNRATED UNRATED Dual Audio [Eng-Hindi] 420p mHD 552MB Running Time: 1h 51mn ::General:: Complete Name: Nine And A Half Weeks 1986 UNRATED UNRATED Dual Audio [Eng-Hindi] Format: MP4 File size: 552 MiB Duration: 1h 51mn Overall Bitrate: 691 Kbps Language: Hindi - ENGLISH Sub Title: No Special Thanks To -King- ::IMDB INFO:: IMDB Link: Genre: Drama Romance ::Plot:: An erotic story about a woman, the assistant of an art gallery, who gets involved in an impersonal affair with a man. Vikings.S04E10.H. Nine and a Half Weeks Torrent Related Torrent[mkv] Nine.Half.Weeks.1986.x264.DTS-WAF[avi] Nine.Half.Weeks.1986.720p.BRRip.XviD.AC3-RARBG[mp4] Nine Half Weeks 1986 1080p BluRay x264 AAC - Ozlem[mp4] Nine Half Weeks 1986 720p BluRay x264 AAC - Ozlem[avi] Nine and a half weeks.avi[avi] Nine and a half weeks (1986)[avi] Nine And A Half Weeks (1986).avi[vob] Nine and a Half Weeks[avi] Nine.and.a.Half.Weeks.1986.DVDRip-Morsan(SweSub)[avi] Nine.and.a.Half.Weeks[1986]DvDrip[Eng]-ZeusDias.avi[avi] Nine and One-Half Weeks [1986] Adrian Lyne[avi] The First Nine and a Half Weeks(1998).DVDRip.GoGo[mp4] Nine And a Half Weeks.1986 DvDrip [Eng-iTA] x264 MarGe[mp4] Nine And A Half Weeks 1986 UNRATED Dvd Rip 420p mHD Dual Audio [hindi - English] HD555[mp4] Nine and a half Weeks H.264MPEG-4 AVC [Eng]BlueLady[mkv] +18 Nine And A Half Weeks 1986 DvdRip Dual Audio Hindi English GOPI SAHI.mkv[mkv] Nine.And.A.Half.Weeks.1986.720p.BluRay.x264-x0r[mkv] Nine And A Half Weeks UNCUT 1986 BRRip 1080p Ita Eng x265-NAHOM[mkv] Nine.And.A.Half.Weeks.1986.720p.BRRip.1GB.MkvCage.mkv[mkv] Nine and a Half Weeks (1986) 720p UNCUT BluRay x264 Eng Subs [Dual Audio] [Hindi 2.0 - English DD 2.

Game.of.Thrones. Lea says to John that Elizabeth married and moved away. Real Steel (2011) BD. Barbie of Swan Lake . The.Flash.2014.S. Written by VoodooKid1982 Available in versions: HDRiPDVDRip . Once (2006) The Road (2009) DvDS. Download torrent 559.18 MB seeders:1 leechers:2 Nine And A Half Weeks 1986 UNRATED Dvd Rip 420p mHD Dual Audio hindi - English HD555 .

Girl fucked by dog on world startamil nadu aunties xxx videos for downloadbig-boobs-anime-girl-ipad-2-wallpapers.jpgMan with animal femel sex video xdesi.mobiHEU KMS Activator 4.3 Portable


Jeu 28 Avr - 06:11 (2016)
Publicité






Message Publicité
PublicitéSupprimer les publicités ?

Jeu 28 Avr - 06:11 (2016)
Montrer les messages depuis:    
Répondre au sujet    Les Rouches Index du Forum » Les Rouches: Jeux » Jeux Toutes les heures sont au format GMT + 2 Heures
Page 1 sur 1

 
Sauter vers: 

Index | Panneau d’administration | forum gratuit | Forum gratuit d’entraide | Annuaire des forums gratuits | Signaler une violation | Conditions générales d'utilisation
Powered by phpBB © 2001, 2005 phpBB Group
Design by Freestyle XL / Music Lyrics.Traduction par : phpBB-fr.com